查看: 373|回复: 0

[【杂歌】] 【图文教程】 Exact Audio Copy 新手调教攻略(含最新1.3版本下载地址)

[复制链接]

699

主题

1516

帖子

7976

威望

^_^ you know专属夏娜夏娜夏娜夏娜斩服少女副裁决官优纪C.C管理员签到专家C.C音乐勋章爱依稀铁路哟,欧尼酱生命是承载、传达心声的媒介结城明日奈图片勋章完结勋章

发表于 2017-5-18 18:04:00 | 显示全部楼层 |阅读模式
前言:EAC作为一个免费软件,深受HIFI级玩家推崇和喜爱,跟其他大多数的音轨抓取软件相比,EAC使用了一种安全(secure)读取方法:这意味着所有的音乐扇区要至少被读两遍,其他音轨抓取软件仅读一遍而已。这将极大地提高错误检测水平。一旦发生读取错误,EAC 将重读音乐数据(最多82次)以求得到完美结果。EAC可选择安全 (secure),快速 (fast) 及爆发 (burst)抓取方式。快速抓取可得到和其他音轨抓取软件相同的速度,但可能不那么精确,爆发模式只是抓取音轨数据而不进行任何同步处理,结果就是可能出现爆音,断音现象。而在安全模式下,尽可能地检测和修正读取错误和完全的同步检测,复制音乐数据的全部音域,而不仅仅是音轨。因此本贴是以安全模式为前提的详细设置教程~



首先给大家提供EAC版本下载,大家根据自己喜好下载使用:

eac1.3版本 :
http://pan.baidu.com/s/1hrZq0bM

eac-1.1版本:
http://pan.baidu.com/s/1i374FBn

eac-1.0beta3:
http://pan.baidu.com/s/1kT4IHfD

eac-0.99pb1(该版本适合早期的CCCD,因为独特的防盗拷技术,1.0版本以上无法进行抓取):
http://pan.baidu.com/s/1eQjUoj4




设置部分:

第一步:安装完首先请打开软件,请点击“EAC”→“EAC 选项”按照本帖图片所示设置即可:

1:


2:


3:


只需要设置前三项即可,文件目录可以在每次抓取前自行修改位置。









第二步:请点击“EAC”→“驱动器选项”,按照本帖图片所示设置即可:

1:
请务必不要选择爆发模式!


2:


3:
由于每一台光驱的偏移值都是不同的,光驱偏移校验值查询地址: http://www.accuraterip.com/driveoffsets.htm
如果查询到的偏移值为正数时,请填写+数字;如果是负值,请填写-数字。



4:


到这里“驱动器选项”的设置就结束,“刻录”选项卡用默认的,最后要记得点“确定”保存设置, 然后还要记得保存全部EAC的设置,关闭EAC软件,再重启EAC软件,其相关设置就可以使用了。







准备工作到此就算完工了,最后就可以抓盘啦~至于抓取的无损格式,就看大家喜好了,如果想要自己的音轨有tag信息,可以在抓取前依次点击“数据库”→“获取CD信息”→“从远程数据源”即可,第一次会要求输入邮箱,因为不需要认证,随便填就好了~





教程的最后,说明一下LOG,俗称抓轨日志,同时也是自抓的证明,如果是按照上面的步骤抓取的音轨,得到的示范数据应该是如下:

Exact Audio Copy V1.0 beta 3 from 29. August 2011

EAC extraction logfile from 31. October 2015, 16:30

ボア / トール・スネーク・EP

Used drive  : PIONEER DVD-RW DVR-XD11   Adapter: 2  ID: 0

Read mode               : Secure
Utilize accurate stream : Yes
Defeat audio cache      : Yes
Make use of C2 pointers : No

Read offset correction                      : 6
Overread into Lead-In and Lead-Out          : No
Fill up missing offset samples with silence : Yes
Delete leading and trailing silent blocks   : No
Null samples used in CRC calculations       : Yes
Used interface                              : Native Win32 interface for Win NT & 2000

Used output format : Internal WAV Routines
Sample format      : 44.100 Hz; 16 Bit; Stereo


TOC of the extracted CD

     Track |   Start  |  Length  | Start sector | End sector
    ---------------------------------------------------------
        1  |  0:00.00 |  3:22.17 |         0    |    15166   
        2  |  3:22.17 |  5:20.73 |     15167    |    39239   
        3  |  8:43.15 |  5:13.37 |     39240    |    62751   
        4  | 13:56.52 |  4:18.25 |     62752    |    82126   
        5  | 18:15.02 |  3:51.55 |     82127    |    99506   


Range status and errors

Selected range

     Filename E:\ボア - トール・スネーク・EP.wav

     Peak level 100.0 %
     Extraction speed 1.5 X
     Range quality 100.0 %
     Copy CRC CEA46318
     Copy OK

No errors occurred

End of status report

==== Log checksum 978D32D67DA7ECF50E632EB81ECB7BF2761DB06127EF73C816BC30A4C8BEA9CF ====


(这里要说明一个特殊情况,就是1.0版本以下的EAC抓取完成后是不会生产Log checksum的,但是因为可以抓CCCD,所以现在还有人在使用。)





大概的设置就是这样~最后希望大家在音乐区玩的愉快~



[发帖际遇]: 包子馒头 发帖时在路边捡到 3 枚 金币,偷偷放进了口袋. 幸运榜 / 衰神榜
叫我包子就好!
回复

使用道具 举报

guest
welcomelogin
您需要登录后才可以回帖 登录 | 注册会员 用百度帐号登录

本版积分规则

反馈

投诉举报 意见反馈 用户协议 论坛规则

反馈须知: 切勿滥用举报,任何与举报相关的信息必须属实!

网站资源

  • 客户端
  • 微信
  • 微博

QQ|客服电话|触屏版|手机客户端|版权声明|小黑屋|C.c动漫社  

JS of wanmeiff.com and vcpic.com Please keep this copyright information, respect of, thank you!JS of wanmeiff.com and vcpic.com Please keep this copyright information, respect of, thank you!

C.c动漫社 - CC动漫|动漫壁纸|新番在线|动漫下载(-ω-`) 工信部备案号:闽ICP15003530-4|公安部备案号:35098202000106

站长声明:本站大多数内容及资源来自网友自购分享,仅供汉化学习试用,请于下载后24小时内删除(虽然你删没删除我也不知道),另外请积极支持购买正版内容(你硬要白嫖我也管不着)
本站资源仅供试看禁止用于商业行为(虽然你用了我也拿你没办法)。若因私自传播造成法律问题本站概不负责(叫我负责我也负不起),如侵犯您的权益请告知,联系我QQ1030207052删除。

快速回复 返回顶部 返回列表